12 Years a Slave | Trainspotting BLuRayRip | Sathi Tera Pyar Puja H Mp3

Mysteries of the Unseen World


Mysteries of the Unseen World (2013)
720p BluRay | 1280x720 | .MP4/AVC @ 999 Kbps | 39mn 7s | Audio: English AAC 93.3 kbps, 2 channels | Subs: None | 308 MiB
1080p BluRay | 1920x1080 | .MP4/AVC @ 1999 Kbps | 39mn 7s | Audio: English AAC 93.3 kbps, 2 channels | Subs: None | 588 MiB
Genre: Documentary

MYSTERIES OF THE UNSEEN WORLD transports audiences to places on this planet that they have never been before, to see things that are beyond their normal vision, yet literally right in front of their eyes. Mysteries of the Unseen World reveals phenomena that cant be seen with the naked eye, taking audiences into earthly worlds secreted away in different dimensions of time and scale. Viewers experience events that unfold too slowly for human perception; They "see" the beauty, drama, and even humor of phenomena of that occur in the flash of a microsecond; They enter the microscopic world that was once reserved only for scientists, but that Mysteries of the Unseen World makes accessible to the rest of us; They begin to understand that what we actually see is only a fraction of what there is TO see on this Earth. High-speed and time-lapse photography, electron microscopy, and nanotechnology are just a few of the advancements in science that now allow us to see a whole new universe of.


MYSTERIES OF THE UNSEEN WORLD transports audiences to places on this planet that they have never been before, to see things that are beyond their normal vision, yet literally right in front of their eyes. Mysteries of the Unseen World reveals phenomena that cant be seen with the naked eye, taking audiences into earthly worlds secreted away in different dimensions of time and scale. Viewers experience events that unfold too slowly for human perception; They "see" the beauty, drama, and even humor of phenomena of that occur in the flash of a microsecond; They enter the microscopic world that was once reserved only for scientists, but that Mysteries of the Unseen World makes accessible to the rest of us; They begin to understand that what we actually see is only a fraction of what there is TO see on this Earth. High-speed and time-lapse photography, electron microscopy, and nanotechnology are just a few of the advancements in science that now allow us to see a whole new universe of.

More info
MediaInfo 720p

General
Complete name : Mysteries.of.the.Unseen.World.2013.720p.Oz.mp4
Format : MPEG-4
Format profile : Base Media
Codec ID : isom
File size : 308 MiB
Duration : 39mn 7s
Overall bit rate mode : Variable
Overall bit rate : 1 102 Kbps
Video
ID : 1
Format : AVC
Format/Info : Advanced Video Codec
Format profile : [email protected]
Format settings, CABAC : Yes
Format settings, ReFrames : 5 frames
Codec ID : avc1
Codec ID/Info : Advanced Video Coding
Duration : 39mn 7s
Bit rate : 999 Kbps
Maximum bit rate : 10.4 Mbps
Width : 1 280 pixels
Height : 720 pixels
Display aspect ratio : 16:9
Frame rate mode : Constant
Frame rate : 23.976 fps
Color space : YUV
Chroma subsampling : 4:2:0
Bit depth : 8 bits
Scan type : Progressive
Bits/(Pixel*Frame) : 0.045
Stream size : 280 MiB (91%)
Writing library : x264 core 146 r2538 121396c
Encoding settings : cabac=1 / ref=5 / deblock=1:-1:-1 / analyse=0x3:0x113 / me=umh / subme=9 / psy=1 / psy_rd=1.00:0.15 / mixed_ref=1 / me_range=24 / chroma_me=1 / trellis=2 / 8x8dct=1 / cqm=0 / deadzone=21,11 / fast_pskip=0 / chroma_qp_offset=-3 / threads=12 / lookahead_threads=1 / sliced_threads=0 / nr=0 / decimate=1 / interlaced=0 / bluray_compat=0 / constrained_intra=0 / bframes=3 / b_pyramid=2 / b_adapt=2 / b_bias=0 / direct=3 / weightb=1 / open_gop=0 / weightp=2 / keyint=240 / keyint_min=23 / scenecut=40 / intra_refresh=0 / rc_lookahead=60 / rc=2pass / mbtree=1 / bitrate=999 / ratetol=1.0 / qcomp=0.60 / qpmin=0 / qpmax=69 / qpstep=4 / cplxblur=20.0 / qblur=0.5 / vbv_maxrate=31250 / vbv_bufsize=31250 / nal_hrd=none / filler=0 / ip_ratio=1.40 / aq=1:1.00
Language : English
Encoded date : UTC 2015-05-24 16:33:13
Tagged date : UTC 2015-05-24 16:33:16
Color primaries : BT.709-5, BT.1361, IEC 61966-2-4, SMPTE RP177
Matrix coefficients : BT.709-5, BT.1361, IEC 61966-2-4 709, SMPTE RP177
Audio
ID : 2
Format : AAC
Format/Info : Advanced Audio Codec
Format profile : LC
Codec ID : 40
Duration : 39mn 7s
Bit rate mode : Variable
Bit rate : 93.3 Kbps
Maximum bit rate : 166 Kbps
Channel(s) : 2 channels
Channel positions : Front: L R
Sampling rate : 48.0 KHz
Compression mode : Lossy
Stream size : 26.1 MiB (8%)
Language : English
Encoded date : UTC 2015-05-24 16:33:15
Tagged date : UTC 2015-05-24 16:33:16

MediaInfo 1080p

General
Complete name : Mysteries.of.the.Unseen.World.2013.1080p.Oz.mp4
Format : MPEG-4
Format profile : Base Media
Codec ID : isom
File size : 588 MiB
Duration : 39mn 7s
Overall bit rate mode : Variable
Overall bit rate : 2 103 Kbps
Video
ID : 1
Format : AVC
Format/Info : Advanced Video Codec
Format profile : [email protected]
Format settings, CABAC : Yes
Format settings, ReFrames : 4 frames
Codec ID : avc1
Codec ID/Info : Advanced Video Coding
Duration : 39mn 7s
Bit rate : 1 999 Kbps
Maximum bit rate : 18.5 Mbps
Width : 1 920 pixels
Height : 1 080 pixels
Display aspect ratio : 16:9
Frame rate mode : Constant
Frame rate : 23.976 fps
Color space : YUV
Chroma subsampling : 4:2:0
Bit depth : 8 bits
Scan type : Progressive
Bits/(Pixel*Frame) : 0.040
Stream size : 560 MiB (95%)
Writing library : x264 core 146 r2538 121396c
Encoding settings : cabac=1 / ref=4 / deblock=1:-1:-1 / analyse=0x3:0x113 / me=umh / subme=9 / psy=1 / psy_rd=1.00:0.15 / mixed_ref=1 / me_range=24 / chroma_me=1 / trellis=2 / 8x8dct=1 / cqm=0 / deadzone=21,11 / fast_pskip=0 / chroma_qp_offset=-3 / threads=12 / lookahead_threads=1 / sliced_threads=0 / nr=0 / decimate=1 / interlaced=0 / bluray_compat=0 / constrained_intra=0 / bframes=3 / b_pyramid=2 / b_adapt=2 / b_bias=0 / direct=3 / weightb=1 / open_gop=0 / weightp=2 / keyint=240 / keyint_min=23 / scenecut=40 / intra_refresh=0 / rc_lookahead=60 / rc=2pass / mbtree=1 / bitrate=1999 / ratetol=1.0 / qcomp=0.60 / qpmin=0 / qpmax=69 / qpstep=4 / cplxblur=20.0 / qblur=0.5 / vbv_maxrate=31250 / vbv_bufsize=31250 / nal_hrd=none / filler=0 / ip_ratio=1.40 / aq=1:1.00
Language : English
Encoded date : UTC 2015-05-24 18:44:55
Tagged date : UTC 2015-05-24 18:44:59
Color primaries : BT.709-5, BT.1361, IEC 61966-2-4, SMPTE RP177
Matrix coefficients : BT.709-5, BT.1361, IEC 61966-2-4 709, SMPTE RP177
Audio
ID : 2
Format : AAC
Format/Info : Advanced Audio Codec
Format profile : LC
Codec ID : 40
Duration : 39mn 7s
Bit rate mode : Variable
Bit rate : 93.3 Kbps
Maximum bit rate : 166 Kbps
Channel(s) : 2 channels
Channel positions : Front: L R
Sampling rate : 48.0 KHz
Compression mode : Lossy
Stream size : 26.1 MiB (4%)
Language : English
Encoded date : UTC 2015-05-24 18:44:57
Tagged date : UTC 2015-05-24 18:44:59


http://www.nitroflare.com/view/9F7CF9F20B8BE0D/Mysteries.of.the.Unseen.World.2013.720p.Oz.part1.rar
http://www.nitroflare.com/view/FBE18F467EF32F4/Mysteries.of.the.Unseen.World.2013.720p.Oz.part2.rar
http://www.nitroflare.com/view/D6A0C4F8AC94BF2/Mysteries.of.the.Unseen.World.2013.1080p.Oz.part1.rar
http://www.nitroflare.com/view/CBD3BCDEFACEA86/Mysteries.of.the.Unseen.World.2013.1080p.Oz.part2.rar
http://www.nitroflare.com/view/4DE508B329004A4/Mysteries.of.the.Unseen.World.2013.1080p.Oz.part3.ra



Mysteries of the Unseen World rapidshare megaupload via torrent download, full free download, Mysteries of the Unseen World rar Zip Highspeed torrent download included crack, serial, keygen, cdkey, 2016, 2015 ,Movies(BlueRay/BD/DVD/1080p/720P)download available.

Related News:

Catalin - First Breath (1999)


Catalin - First Breath (1999)
MP3 CBR 320 kbps | Tracks: 8 | 44:43 min | 102 Mb
Style: New Age, Enigmatic, Ambient, World | Label: AD Music
"First Breath" is an amazing collection of thematic melodies combining

Paloma Devi - Let it Be So (2014)


Paloma Devi - Let it Be So (2014)
MP3 CBR 320 kbps | Tracks: 6 | 50:07 min | 115 Mb
Style: New Age, World | Label: Spirit Voyage
Smooth and sensual, Paloma Devi s debut solo release combines music from her multi-cultural and

The Guitar Artistry Of - Eric Bibb (2011)


The Guitar Artistry Of - Eric Bibb (2011)
Video: NTSC, MPEG-2 at 5 300 Kbps, 720 x 480 at 29.970 fps | Audio: AC-3 2 channels at 192 Kbps, 48.0 KHz
Genre: Blues | Label: Quantum Leap | Copy: Untouched | Release Date: 20 Jun 2011 |

Various Artists - Tropical Disco Hustle Volume Two (2015)


V. A. - Tropical Disco Hustle Volume Two (2015)
Label: Cultures of Soul | MP3 320 kbps CBR | 59:52 min | 137 mb
Disco, World Music, Caribbean, Soul
Cultures of Soul is proud to release the highly anticpated follow-up to the

Chris Spheeris - Maya and the Eight Illusions (2012)


Chris Spheeris - Maya and the Eight Illusions (2012)
EAC Rip | FLAC (image & cue & log) & mp3 @ 320 kbps | tracks: 8 | Scans | 56:18 | ~ 340 Mb & 160 Mb
Label: Essence Records | 5% recovery record | New age,

Diana Ross and The Supremes - Legenden des Soul: Diana Ross and The Supremes (2014)


Diana Ross and The Supremes - Legenden des Soul: Diana Ross and The Supremes (2014)
Soul, RnB, Disco | MP3 CBR 320 kbps | 00:57:06 | 134 MB
Label: Universal Music | Tracks: 20 | Rls.date: 2014
Released through the German wing of

Comments: 0