navifirm latest 2013 free download | Under the Dome | Андрей Галактионов

Alien Resurrection 1997 Full 1080p


Alien Resurrection [1997][Full 1080p]
http://www.imdb.com/title/tt0118583/
ORIGINAL TITLE Alien Resurrection
ANO 1997
DURATION 108 min.
COUNTRY USA
DIRECTOR Jean-Pierre Jeunet
Joss Whedon Screenplay (Characters: Dan OBannon & Ronald Shusett)
MUSIC John Frizzell
PHOTOGRAPHY Darius Khondji
CAST Sigourney Weaver, Winona Ryder, Ron Perlman, Dan Hedaya, JE Freeman, Brad Dourif, Michael Wincott, Leland Orser, Raymond Cruz, Dominique Pinon, Gary Dourdan
PRODUCER 20th Century Fox / Brandywine Productions
GENDER Science fiction. Terror | Aliens. sequel
SYNOPSIS More than two hundred years after his death, Ripley (Sigourney Weaver) is resurrected using advanced cloning techniques. But Ripleys DNA was mixed with the Alien Queen during the process, so scientists also aim to recreate. Ripley then begins to develop certain alien characteristics of dangerous.


General
Complete name : Alien 4 (1997) 1080p FULL Dual.mkv
Format : Matroska
Format version : Version 4 / Version 2
File size : 4.98 GiB
Duration : 1h 56mn
Overall bit rate : 6 138 Kbps
Movie name : Alien Resurrection [1997][1080p FULL Dual]
Encoded date : UTC 2014-09-14 07:49:54
Writing application : mkvmerge v6.9.1 (Blue Panther) 64bit built on Apr 18 2014 18:23:38
Writing library : libebml v1.3.0 + libmatroska v1.4.1
Video
ID : 1
Format : AVC
Format/Info : Advanced Video Codec
Format profile : [email protected]
Format settings, CABAC : Yes
Format settings, ReFrames : 2 frames
Codec ID : V_MPEG4/ISO/AVC
Duration : 1h 56mn
Bit rate : 5 120 Kbps
Nominal bit rate : 5 384 Kbps
Width : 1 920 pixels
Height : 1 080 pixels
Display aspect ratio : 16:9
Frame rate mode : Constant
Frame rate : 23.976 fps
Color space : YUV
Chroma subsampling : 4:2:0
Bit depth : 8 bits
Scan type : Progressive
Bits/(Pixel*Frame) : 0.103
Stream size : 4.15 GiB (83%)
Writing library : x264 core 142
Default : Yes
Forced : No
Color primaries : BT.709
Transfer characteristics : BT.709
Matrix coefficients : BT.709
Audio #1
ID : 2
Format : AC-3
Format/Info : Audio Coding 3
Mode extension : CM (complete main)
Format settings, Endianness : Big
Codec ID : A_AC3
Duration : 1h 56mn
Bit rate mode : Constant
Bit rate : 448 Kbps
Channel(s) : 6 channels
Channel positions : Front: L C R, Side: L R, LFE
Sampling rate : 48.0 KHz
Bit depth : 16 bits
Compression mode : Lossy
Stream size : 372 MiB (7%)
Title : Espa?ol Latino
Default : Yes
Forced : No
Audio #2
ID : 3
Format : AC-3
Format/Info : Audio Coding 3
Mode extension : CM (complete main)
Format settings, Endianness : Big
Codec ID : A_AC3
Duration : 1h 56mn
Bit rate mode : Constant
Bit rate : 448 Kbps
Channel(s) : 6 channels
Channel positions : Front: L C R, Side: L R, LFE
Sampling rate : 48.0 KHz
Bit depth : 16 bits
Compression mode : Lossy
Stream size : 372 MiB (7%)
Title : Ingles
Default : No
Forced : No
Text #1
ID : 4
Format : UTF-8
Codec ID : S_TEXT/UTF8
Codec ID/Info : UTF-8 Plain Text
Default : Yes
Forced : No
Text #2
ID : 5
Format : VobSub
Muxing mode : zlib
Codec ID : S_VOBSUB
Codec ID/Info : The same subtitle format used on DVDs
Title : Subtitulos Espa?ol
Default : No
Forced : No
Text #3
ID : 6
Format : VobSub
Muxing mode : zlib
Codec ID : S_VOBSUB
Codec ID/Info : The same subtitle format used on DVDs
Title : Subtitulos Ingles
Default : No
Forced : No
Alien Resurrection [1997][Full 1080p]
Alien Resurrection [1997][Full 1080p]
Alien Resurrection [1997][Full 1080p]
http://www.uploadable.ch/file/SNyXgr9KkUh8/aldd4hd.part01.rar
http://www.uploadable.ch/file/HxgT2KqrTfEB/aldd4hd.part02.rar
http://www.uploadable.ch/file/mZ3mWq5H7rK2/aldd4hd.part03.rar
http://www.uploadable.ch/file/8VmVh9J94CpB/aldd4hd.part04.rar
http://www.uploadable.ch/file/A7yM5FkQNhnP/aldd4hd.part05.rar
http://www.uploadable.ch/file/9cTVpuNT6xNW/aldd4hd.part06.rar
http://www.uploadable.ch/file/KYr4pe3Xu2xw/aldd4hd.part07.rar
http://www.uploadable.ch/file/SFFq3BNgtq6W/aldd4hd.part08.rar
http://www.uploadable.ch/file/BtNKrtpM4hXQ/aldd4hd.part09.rar
http://www.uploadable.ch/file/eBqkPU9ueDhy/aldd4hd.part10.rar
http://www.uploadable.ch/file/2AEnkC9kWFZn/aldd4hd.part11.rar
http://www.uploadable.ch/file/SGUddnZJk9wK/aldd4hd.part12.rar
http://www.uploadable.ch/file/kRNy3T335huB/aldd4hd.part13.rar
http://www.uploadable.ch/file/wJyzUZmTwSGK/aldd4hd.part14.rar
http://www.uploadable.ch/file/4J9A6uaGjn7r/aldd4hd.part15.rar
http://www.uploadable.ch/file/fYQDsrGuCaHy/aldd4hd.part16.rar
http://www.uploadable.ch/file/uZmH2ySaZdBb/aldd4hd.part17.rar
http://www.uploadable.ch/file/FchM4hyaBaTt/aldd4hd.part18.rar
http://www.uploadable.ch/file/Hakx5jdupubK/aldd4hd.part19.rar
http://www.uploadable.ch/file/vuteZcGW39gZ/aldd4hd.part20.rar
http://www.uploadable.ch/file/ReCEu6dXbQHR/aldd4hd.part21.rar



Alien Resurrection 1997 Full 1080p rapidshare megaupload via torrent download, full free download, Alien Resurrection 1997 Full 1080p rar Zip Highspeed torrent download included crack, serial, keygen, cdkey, 2016, 2015 ,Movies(BlueRay/BD/DVD/1080p/720P)download available.

Related News:

Punch Brothers - The Phosphorescent Blues (2015)


Punch Brothers - The Phosphorescent Blues (2015)
EAC Rip | Flac (Tracks + cue + log) | 253 MB | MP3 320Kbps CBR | 107 MB | 1 CD | Full Scans
Genre: Folk - Bluegrass | Label: Nonesuch Records | Catalog Number: 546377
“After

Barbecue Bob & The Spare Ribs - Burning Sensation (2006)


Barbecue Bob & The Spare Ribs - Burning Sensation (2006)
EAC Rip | FLAC (Image) + CUE + LOG | 399 MB | Covers Included
Genre: Blues/Pop/Rock/Blues-Rock | Label: Dada Records | Catalog Number: DR-0031 | Release Date: Aug 9, 2006 |

Yannick Nezet-Seguin & Chamber Orchestra of Europe - Schumann: The Symphonies (2014) 2CD Deutsche Grammophon


Yannick Nezet-Seguin & Chamber Orchestra of Europe - Schumann: The Symphonies (2014) [2CD] {Deutsche Grammophon}
EAC rip (secure mode) | FLAC (tracks)+CUE+LOG -> 521 Mb | MP3 @320 -> 313 Mb
Full Artwork @ 300 dpi (png)

Various Artists - Tropical Disco Hustle Volume Two (2015)


V. A. - Tropical Disco Hustle Volume Two (2015)
Label: Cultures of Soul | MP3 320 kbps CBR | 59:52 min | 137 mb
Disco, World Music, Caribbean, Soul
Cultures of Soul is proud to release the highly anticpated follow-up to the

Charlie Haden Family & Friends - Rambling Boy 2008


Charlie Haden Family & Friends - Rambling Boy 2008
MP3 @ 320 | 176 MB | Covers included
Genre:Country / Jazz
Listeners familiar with the Charlie Haden's celebrated career may not know of the legendary jazz

VA: Disco Giants Volume 3-6 (2013)


VA: Disco Giants Volume 3-6 (2013)
EAC | Flac(Image) + Cue + Log & MP3 CBR 320Kbps
8CD | PTG Records / Vinyl Masterpiece | ~ 3376 or 1131 Mb | Scans(png) -> 599 Mb
Disco / Funk

~ 80 Full Lenght Disco Classics

Comments: 0