reloj Elstree 1976 (2015) en línea en espanol | Assistir – Episódio 02 | Mondo Zombie BLuRayRip

Le créateur / The Creator (1999)


Le créateur / The Creator (1999)
DVDRip | MKV | 716 x 428 | AVC @ 1808 Kbps | 86 min | 1.37 Gb
Audio: French AC3 5.1 @ 448 Kbps | Subs: English (embedded)
Genre: Comedy | France

After the success of his first play, writer Darius ends up in a hospital to cure him of his alcoholism. When he returns to Paris six months later, his producer immediately demands his next play, which is about to go into rehearsal. Unable to write, totally depressed, and have killed his neighbour's cat by accident, Darius takes an overdose of sleeping tablets. When he wakes up, he finds that the first act of his play has been written on his computer. Convinced that the act of killing has given him the inspiration he needs, he embarks on a career of murder and mayhem...


IMDB 7.0/10 from 697 users

Director: Albert Dupontel
Writer: Albert Dupontel, Gilles Laurent
Actors: Claude Perron, Albert Dupontel, Philippe Uchan, Michel Vuillermoz
Rated: N/A
Runtime: 86 min








More Screenshots:



Media Info:

General
Unique ID : 193211876286121732166780290184887326503 (0x915B40FA0639F9E99264B24E6146D727)
Complete name : F:Le.Createur.1999.FANSUB.DVDRip.x264-PSKLe.Createur.1999.FANSUB.DVDRip.x264-PSK.mkv
Format : Matroska
Format version : Version 4 / Version 2
File size : 1.37 GiB
Duration : 1h 26mn
Overall bit rate : 2 258 Kbps
Encoded date : UTC 2015-02-02 06:46:13
Writing application : mkvmerge v7.4.0 ('Circles') 32bit built on Dec 12 2014 12:10:09
Writing library : libebml v1.3.0 + libmatroska v1.4.1
DURATION : 01:23:10.872000000
NUMBER_OF_FRAMES : 964
NUMBER_OF_BYTES : 27429
_STATISTICS_WRITING_APP : mkvmerge v7.4.0 ('Circles') 32bit built on Dec 12 2014 12:10:09
_STATISTICS_WRITING_DATE_UTC : 2015-02-02 06:46:13
_STATISTICS_TAGS : BPS DURATION NUMBER_OF_FRAMES NUMBER_OF_BYTES

Video
ID : 1
Format : AVC
Format/Info : Advanced Video Codec
Format profile : [email protected]
Format settings, CABAC : Yes
Format settings, ReFrames : 14 frames
Codec ID : V_MPEG4/ISO/AVC
Duration : 1h 26mn
Bit rate : 1 808 Kbps
Width : 716 pixels
Height : 428 pixels
Display aspect ratio : 2.40:1
Frame rate mode : Constant
Frame rate : 25.000 fps
Color space : YUV
Chroma subsampling : 4:2:0
Bit depth : 8 bits
Scan type : Progressive
Bits/(Pixel*Frame) : 0.236
Stream size : 1.07 GiB (78%)
Writing library : x264 core 130 r2273 b3065e6
Encoding settings : cabac=1 / ref=14 / deblock=1:-1:-1 / analyse=0x3:0x133 / me=umh / subme=10 / psy=1 / psy_rd=1.00:0.15 / mixed_ref=1 / me_range=24 / chroma_me=1 / trellis=2 / 8x8dct=1 / cqm=0 / deadzone=21,11 / fast_pskip=1 / chroma_qp_offset=-3 / threads=12 / lookahead_threads=2 / sliced_threads=0 / nr=0 / decimate=1 / interlaced=0 / bluray_compat=0 / constrained_intra=0 / bframes=8 / b_pyramid=2 / b_adapt=2 / b_bias=0 / direct=3 / weightb=1 / open_gop=0 / weightp=2 / keyint=250 / keyint_min=25 / scenecut=40 / intra_refresh=0 / rc_lookahead=60 / rc=2pass / mbtree=1 / bitrate=1808 / ratetol=1.0 / qcomp=0.60 / qpmin=0 / qpmax=69 / qpstep=4 / cplxblur=20.0 / qblur=0.5 / vbv_maxrate=17500 / vbv_bufsize=17500 / nal_hrd=none / ip_ratio=1.40 / aq=1:1.00
Language : English
Default : Yes
Forced : No
Color primaries : BT.601 PAL
Transfer characteristics : BT.709
Matrix coefficients : BT.601
Color range : Limited

Audio
ID : 2
Format : AC-3
Format/Info : Audio Coding 3
Mode extension : CM (complete main)
Format settings, Endianness : Big
Codec ID : A_AC3
Duration : 1h 26mn
Bit rate mode : Constant
Bit rate : 448 Kbps
Channel(s) : 6 channels
Channel positions : Front: L C R, Side: L R, LFE
Sampling rate : 48.0 KHz
Bit depth : 16 bits
Compression mode : Lossy
Stream size : 278 MiB (20%)
Language : French
Default : Yes
Forced : No

Text
ID : 3
Format : UTF-8
Codec ID : S_TEXT/UTF8
Codec ID/Info : UTF-8 Plain Text
Language : English
Default : Yes
Forced : No

Menu
00:00:00.000 : en:Chapter 1
00:06:24.480 : en:Chapter 2
00:13:42.720 : en:Chapter 3
00:19:25.440 : en:Chapter 4
00:28:29.760 : en:Chapter 5
00:37:17.800 : en:Chapter 6
00:45:06.280 : en:Chapter 7
00:51:25.480 : en:Chapter 8
01:00:33.040 : en:Chapter 9
01:05:23.920 : en:Chapter 10
01:12:34.960 : en:Chapter 11
01:18:34.000 : en:Chapter 12


Many Thanks to Original uploader.


For More Rare Movies


Download Links :

No Mirrors Please




Le créateur / The Creator (1999) rapidshare megaupload via torrent download, full free download, Le créateur / The Creator (1999) rar Zip Highspeed torrent download included crack, serial, keygen, cdkey, 2016, 2015 ,Movies(BlueRay/BD/DVD/1080p/720P)download available.

Related News:

Neal Pattman - Prison Blues (1999)


Neal Pattman - Prison Blues (1999)
EAC Rip | FLAC (Img) + Cue + Log ~ 303 Mb | MP3 CBR320 ~ 137 Mb
Scans (JPG, 300 dpi) ~ 175 Mb | RAR 5% Recovery
Blues, Harp | Cello Recordings #91003-2
“Neal Pattman (January 10,

Blank and Jones - In Da Mix (Super Deluxe Edition) (2015)


Blank and Jones - In Da Mix (Super Deluxe Edition) (2015)
Label: Soundcolours | MP3 320 kbps CBR (Mixed + Unmixed) | 318:18 min | 731 mb
Electronic, Downtempo, Ambient, Trance
The legendary Blank & Jones debut album ‘In Da

The Hyperion Romantic Piano Concerto Series - Volume 11-20 Part 2 (1995-1999)


The Hyperion Romantic Piano Concerto Series - Volume 11-20 Part 2 (1995-1999)
Classical, Piano | MP3 CBR 320 kbps | 1,57 Gb | Covers - 57 Mb
Label: Hyperion Records | Release Year: 1995-1999
“The concept of The Romantic

Tommy Emmanuel C.G.P. - The Very Best of Tommy Emmanuel (2001) 2CD Re-Up


Tommy Emmanuel, C.G.P. - The Very Best of Tommy Emmanuel (2001) 2CD
EAC | FLAC | Tracks (Cue&Log) ~ 877 Mb (incl 5%) | Mp3 (CBR320) ~ 314 Mb (incl 5%) | Scans included
Genre: Fingerpicking, World, Folk, Guitar Jazz, Instrumental

Catalin - First Breath (1999)


Catalin - First Breath (1999)
MP3 CBR 320 kbps | Tracks: 8 | 44:43 min | 102 Mb
Style: New Age, Enigmatic, Ambient, World | Label: AD Music
"First Breath" is an amazing collection of thematic melodies combining

Clarence Gatemouth Brown - Okie Dokie Stomp (1999)


Clarence 'Gatemouth' Brown - Okie Dokie Stomp (1999)
EAC Rip | FLAC (Image) + CUE + LOG | Covers | 352 MB
Genre: Blues/Folk/R&B/Country | Label: Bullseye Blues/Bullseye Blues | Release Date: July 13, 1999 | Catalog

Comments: 0